#TITLE:Bee;
#SUBTITLE:Expi3nze;
#ARTIST:Brandy;
#TITLETRANSLIT:;
#SUBTITLETRANSLIT:;
#ARTISTTRANSLIT:;
#CREDIT:;
#BANNER:bn.png;
#BACKGROUND:bg.png;
#LYRICSPATH:;
#CDTITLE:;
#MUSIC:Bee.mp3;
#OFFSET:-0.304;
#SAMPLESTART:7.439;
#SAMPLELENGTH:23.027;
#SELECTABLE:YES;
#BPMS:0.000=184.996,2.000=185.009,3.000=184.996,5.000=185.009,6.000=184.996,9.000=185.009,10.000=184.996,12.000=185.009,13.000=184.996,15.000=185.009,16.000=184.996,19.000=185.009,20.000=184.996,22.000=185.009,23.000=184.996,25.000=185.009,26.000=184.996,29.000=185.009,30.000=184.996,32.000=185.009,33.000=184.996,36.000=185.009,37.000=184.996,39.000=185.009,40.000=184.996,42.000=185.009,43.000=184.996,46.000=185.009,47.000=184.996,49.000=185.009,50.000=184.996,52.000=185.009,53.000=184.996,56.000=185.009,57.000=184.996,59.000=185.009,60.000=184.996,62.000=185.009,63.000=184.996,66.000=185.009,67.000=184.996,69.000=185.009,70.000=184.996,73.000=185.009,74.000=184.996,76.000=185.009,77.000=184.996,79.000=185.009,80.000=184.996,83.000=185.009,84.000=184.996,86.000=185.009,87.000=184.996,89.000=185.009,90.000=184.996,93.000=185.009,94.000=184.996,96.000=185.009,97.000=184.996,99.000=185.009,100.000=184.996,103.000=185.009,104.000=184.996,106.000=185.009,107.000=184.996,109.000=185.009,110.000=184.996,113.000=185.009,114.000=184.996,116.000=185.009,117.000=184.996,120.000=185.009,121.000=184.996,123.000=185.009,124.000=184.996,126.000=185.009,127.000=184.996,130.000=185.009,131.000=184.996,133.000=185.009,134.000=184.996,136.000=185.009,137.000=184.996,140.000=185.009,141.000=184.996,143.000=185.009,144.000=184.996,147.000=185.009,148.000=184.996,150.000=185.009,151.000=184.996,153.000=185.009,154.000=184.996,157.000=185.009,158.000=184.996,160.000=185.009,161.000=184.996,163.000=185.009,164.000=184.996,167.000=185.009,168.000=184.996,170.000=185.009,171.000=184.996,173.000=185.009,174.000=184.996,177.000=185.009,178.000=184.996,180.000=185.009,181.000=184.996,184.000=185.009,185.000=184.996,187.000=185.009,188.000=184.996,190.000=185.009,191.000=184.996,194.000=185.009,195.000=184.996,197.000=185.009,198.000=184.996,200.000=185.009,201.000=184.996,204.000=185.009,205.000=184.996,207.000=185.009,208.000=184.996,210.000=185.009,211.000=184.996,214.000=185.009,215.000=184.996,217.000=185.009,218.000=184.996,220.000=185.009,221.000=184.996,224.000=185.009,225.000=184.996,227.000=185.009,228.000=184.996,231.000=185.009,232.000=184.996;
#STOPS:;
#BGCHANGES:;
// cache tags:
#FIRSTBEAT:5.750;
#LASTBEAT:233.000;
#SONGFILENAME:Songs/SDO pack 1/Bee(Brandy)/Bee.sm;
#HASMUSIC:1;
#HASBANNER:1;
#MUSICLENGTH:76.520;
// end cache tags

//---------------dance-single - ----------------
#NOTES:
     dance-single:
     :
     Hard:
     22:
     1.000,1.000,1.000,0.836,0.582,431.000,113.000,64.000,0.000,17.000:
0000
0000
0000
0000
,
0000
0000
0000
0000
0000
0000
0000
0100
2000
0000
0000
0000
0000
0000
0000
0000
,
0000
0000
0000
0000
0000
0000
0000
0000
0000
0000
0000
0000
0000
0000
0010
3000
0002
0000
0000
0000
0000
0000
0000
0000
0000
0000
0000
0000
0000
0000
0000
0000
,
0000
0000
0000
0000
0000
0000
0000
0000
0000
0000
0000
0000
0000
0000
0003
0000
1210
0000
0000
0000
0000
0000
0000
0000
0000
0000
0000
0000
0000
0000
0000
0300
,
1021
0000
0000
0000
0000
0000
0000
0000
0000
0000
0000
0000
0000
0000
0000
0030
2100
0000
0000
0000
0000
0000
0000
3000
0012
0000
0000
0000
0000
0000
0000
0003
,
1200
0000
0000
0000
0000
0000
0000
0300
0021
0000
0000
0000
0000
0000
0000
0030
1000
0000
0100
0000
0010
0000
0001
0000
0010
0000
0100
0000
1000
0000
0000
0000
,
0011
0000
0000
0010
1100
0000
0000
0000
0001
0010
0100
1000
0100
0010
0001
0000
,
1100
0000
0000
0100
0011
0000
0000
0000
0011
0100
1000
0000
0011
0100
1000
0000
,
0011
0100
1000
0000
0011
0000
0000
0000
1000
0100
0010
0000
1000
0100
0010
0000
,
1000
0100
0010
0000
0011
0000
0000
0000
1000
0100
0010
0001
1100
0000
0010
0000
,
1000
0000
0010
0000
0100
0000
0001
0000
1100
0020
0000
0000
0001
0000
0100
0000
,
1000
0000
0000
0000
0100
0000
0000
0000
0001
0000
0000
0000
0001
0000
0000
0030
0100
0000
2000
0000
0000
0000
0000
0000
0001
0000
0000
0000
0000
0000
0000
0000
,
0110
0000
0000
0000
0000
0000
0000
0000
0011
0000
0000
0000
0000
0000
0000
3000
0110
0000
0000
0000
0000
0000
0000
0000
1100
0000
0010
0000
0000
0000
0000
0000
,
0011
0000
0000
0000
0000
0000
0000
0000
0202
0000
0000
0000
0000
0000
0000
0303
0010
0000
0000
0000
0100
0000
0010
0000
1000
0000
0100
0000
0010
0000
0000
0000
,
2200
0000
0000
0000
0000
0000
0000
0000
0000
0000
0000
0000
0000
0000
0000
0000
0000
0000
0000
0000
0000
0000
3300
0000
0001
0000
0000
0000
0000
0000
0100
0000
0000
0010
0000
0000
1000
0000
0000
0100
0000
0000
0010
0000
0000
0000
0000
0000
,
0022
0000
0000
0000
0100
0000
0000
0000
1000
0000
0000
0000
0100
0000
0000
0033
1000
0000
0000
0000
0001
0000
0010
0000
0100
0000
0000
0000
0010
0000
0000
0000
,
1100
0000
1100
0000
0011
0000
1100
0000
0001
0010
0100
0000
0011
0000
0011
0000
,
1100
0000
1100
0000
0001
0010
0100
1000
0010
0000
0100
1000
0001
0010
0100
0000
,
2002
0000
0000
0000
0000
0000
0000
0000
0000
0000
0000
0000
0000
0000
0000
3003
0100
0000
0000
0000
0010
0000
0001
0000
1000
0000
0100
0000
0010
0000
0000
0000
,
0220
0000
0000
0000
0000
0000
0001
0000
0000
0000
0000
0000
1000
0000
0000
0000
0000
0000
0001
0000
0000
0000
0330
0000
1000
0000
0000
0100
0000
0000
0010
0000
0000
0000
0000
0000
1000
0000
0000
0100
0000
0000
0010
0000
0000
0000
0000
0000
,
0001
0010
0100
1000
0011
0000
0010
0000
0100
0000
0100
0000
0001
0000
0001
0000
,
0010
0000
0100
0000
1000
0000
0000
0000
0011
0000
0000
0000
0010
0000
0000
0000
2010
0000
0000
0000
0000
0000
0000
3000
0201
0000
0000
0000
0000
0000
0000
0300
,
1020
0000
0000
0000
0000
0000
0000
0030
0102
0000
0000
0000
0000
0000
0000
0003
1020
0000
0000
0000
0000
0000
0000
0030
0201
0000
0000
0000
0000
0000
0000
0300
,
2010
0000
0000
0000
0000
0000
0000
3000
0011
0000
0000
0000
0000
0000
0000
0000
1002
0000
0100
0000
0010
0000
0000
0000
1000
0000
0100
0000
0010
0000
0000
0000
,
1000
0000
0000
0100
0000
0000
0010
0000
0000
0000
0000
0000
1000
0000
0000
0100
0000
0000
0010
0000
0000
0000
0003
0000
0210
0000
0000
0000
0000
0000
0000
0000
0000
0000
0000
0000
0001
0000
0000
0000
0000
0000
0010
0000
0000
0000
0000
0000
,
1000
0001
0010
1000
0011
0000
1000
1000
,
0011
0000
0000
0000
1000
0000
0000
0000
0010
0000
0000
0000
0010
0000
0000
0300
2001
0000
0010
0000
0100
0000
0000
0000
0001
0000
0010
0000
0100
0000
0000
0000
,
0001
0000
0010
0000
0100
0000
0000
0000
0001
0000
0010
0000
0100
0000
0000
3000
0021
0000
0000
0000
0000
0000
0000
0000
0100
0000
0000
0000
1000
0000
0000
0000
,
0001
0000
0000
0000
0001
0000
0000
0000
0100
0000
0000
0000
0100
0000
0000
0030
1002
0000
0100
0000
0010
0000
0000
0000
1000
0000
0100
0000
0010
0000
0000
0000
,
1000
0100
0010
0000
1000
0100
0010
0000
0010
0100
1000
0000
0010
0100
1000
0000
,
0010
0000
0100
0000
1000
0000
0000
0000
0010
0000
0100
0000
1000
0000
0000
0003
1100
0000
0000
0000
1100
0000
0000
0000
0000
0000
0000
0000
0000
0000
0010
0000
,
0001
0010
0100
1000
0011
0000
0000
0000
0011
0000
0011
0000
0000
0000
0000
0010
,
1000
0100
0010
0001
1100
0000
0000
0000
0001
0010
0100
0000
0001
0010
0100
0000
,
0001
0010
0100
0000
1010
0000
0000
0000
1000
0100
0010
0000
1000
0100
0010
0000
,
1000
0000
0100
0000
0010
0000
0000
0000
0001
0000
0000
0000
0001
0000
0000
0000
0202
0000
0000
0000
0010
0000
0000
0303
1000
0000
0000
0000
0001
0000
0000
0000
,
0100
0000
0000
0000
0100
0000
0000
0000
0010
0000
0000
0000
0001
0000
0000
0000
2020
0000
0000
0000
0000
0000
0000
3030
0100
0000
0000
0000
0001
0000
0000
0000
,
0010
0000
0000
0000
0100
0000
0000
0000
1000
0000
0000
0000
0100
0000
0000
0000
0012
0000
0000
0000
0000
0000
0000
0003
2100
0000
0000
0000
0000
0000
0000
3000
,
0021
0000
0000
0000
0000
0000
0000
0030
1200
0000
0000
0000
0000
0000
0000
0300
2020
0000
0000
0000
0000
0000
0000
3030
0202
0000
0000
0000
0000
0000
0000
0303
,
2020
0000
0000
0000
0000
0000
0000
3030
0202
0000
0000
0000
0000
0000
0000
0303
1010
0000
0000
0000
1010
0000
0000
0000
0000
0000
0000
0000
1010
0000
0000
0000
,
1000
0100
0010
0000
1100
0000
0000
0000
0101
0000
0101
0000
0000
0000
0101
0000
,
0010
0100
1000
0000
0011
0000
0000
0000
0100
0000
0000
0100
0010
0000
1000
0000
,
0001
0000
0000
0000
0010
0000
0000
0000
1000
0000
0000
0000
0100
0000
0000
0000
0012
0000
0000
0000
0000
0000
0000
0000
0010
0000
0000
0000
0010
0000
0000
0003
,
2100
0000
0000
0000
0000
0000
0000
0000
0001
0000
0010
0000
0100
0000
0000
3000
0212
0000
0000
0000
0000
0000
0010
0303
1000
0000
0000
0000
0010
0000
0000
0000
,
0100
0000
0000
0000
0010
0000
0000
0000
0100
0000
0000
0000
0001
0000
0000
0000
2120
0000
0000
0000
0000
0000
0000
3030
0001
0000
0000
0000
0001
0000
0000
0000
,
1200
0000
0000
0000
0000
0000
0000
0000
0001
0000
0000
0000
0000
0000
0000
0300
1001
0000
0000
0000
1001
0000
0000
0000
0000
0000
0000
0000
1001
0000
0000
0000
,
0010
0100
1000
0100
0010
0000
0000
0000
1001
0000
1001
0000
0000
0000
1001
0000
,
0010
0100
1000
0100
0010
0000
0000
0000
1100
0000
0000
0010
1000
0000
0100
0000
,
0010
0000
0000
0000
0001
0000
0000
0000
0010
0000
0000
0000
0100
0000
0000
0000
0021
0000
0000
0000
0000
0000
0000
0000
0100
0000
0000
0000
0100
0000
0000
0030
,
1200
0000
0000
0000
0000
0000
0000
0000
0001
0000
0000
0000
0000
0000
0000
0300
1010
0000
0000
0000
1010
0000
0000
0000
0000
0000
0000
0000
0001
0000
0000
0000
,
0010
0000
0000
0000
0100
0000
0000
0000
1000
0000
0000
0000
0100
0000
0000
0000
0012
0000
0000
0000
0000
0000
0000
0000
0010
0000
0000
0000
0010
0000
0000
0003
,
2100
0000
0000
0000
0000
0000
0000
0000
0010
0000
0000
0000
0000
0000
0000
3000
0011
0000
0000
0000
0011
0000
0000
0000
1100
0000
0000
0000
0011
0000
0000
0000
,
1200
0000
0000
0000
0000
0000
0000
0000
0000
0000
0000
0000
0011
0000
0000
0300
0011
0000
0000
0000
0000
0000
0000
0000
1000
0000
0100
0000
0010
0000
0000
0000
,
1100
0000
0000
0000
0011
0000
0000
0000
1000
0100
0010
0000
1000
0100
0010
0000
,
1000
0000
0100
0000
0010
0000
0000
0000
1000
0000
0000
0000
0011
0000
0000
0000
2001
0000
0010
0000
0100
0000
0000
0000
0001
0000
0010
3000
0100
0000
0000
0000
,
1002
0000
0100
0000
0010
0000
0000
0000
1000
0000
0100
0000
0010
0000
0000
0003
1000
0000
0100
0000
0010
0000
0001
0000
0010
0000
0100
0000
0000
0000
0000
0000
,
0010
0100
1000
0000
0010
0000
0000
0000
0101
0000
0000
0010
1000
0000
1000
0000
,
0001
0010
0100
1000
0101
0000
0101
0000
,
1010
0101
2020
0000
,
0000
3030
0000
0000
;
